> Tous les forums > Forum Multimédia
 Format Factory problème de conversion
Ajouter un message à la discussion
Page : [1] 
Page 1 sur 1
SLONINK
  Posté le 14/06/2016 @ 19:06 
Aller en bas de la page 
Petit astucien

Bonjour

J'essaye de convertir un fichier avec format factory sur la version 3.9.0 du MP4 vers Avi .

La flèche dans la colonne taille indique soit un agrandissement soit une égalité et moi j'aimerais que ce que le logiciel appelle taille soit de 0 % .

J'ai beau laissé tout par défaut mais le logiciel s'emballe et me dérègle les trames, débit de données et le débit total .

J'espère que vous pourrait m'aider .

General
Complete name : test.mp4
Format : MPEG-4
Format profile : Base Media
Codec ID : isom
File size : 64.7 MiB
Duration : 9mn 5s
Overall bit rate : 994 Kbps
Tagged date : UTC 2016-06-02 12:45:13
Writing application : Lavf54.63.104

Video
ID : 1
Format : AVC
Format/Info : Advanced Video Codec
Format profile : Baseline@L3.0
Format settings, CABAC : No
Format settings, ReFrames : 2 frames
Codec ID : avc1
Codec ID/Info : Advanced Video Coding
Duration : 9mn 5s
Bit rate mode : Variable
Bit rate : 861 Kbps
Width : 568 pixels
Height : 320 pixels
Display aspect ratio : 16:9
Frame rate mode : Constant
Frame rate : 25.000 fps
Color space : YUV
Chroma subsampling : 4:2:0
Bit depth : 8 bits
Scan type : Progressive
Bits/(Pixel*Frame) : 0.190
Stream size : 56.0 MiB (87%)
Writing library : x264 core 142 r2 d6b4e63
Encoding settings : cabac=0 / ref=2 / deblock=1:-1:-1 / analyse=0x1:0x111 / me=hex / subme=6 / psy=1 / psy_rd=1.00:0.15 / mixed_ref=1 / me_range=16 / chroma_me=1 / trellis=1 / 8x8dct=0 / cqm=0 / deadzone=21,11 / fast_pskip=1 / chroma_qp_offset=-3 / threads=1 / lookahead_threads=1 / sliced_threads=0 / nr=0 / decimate=1 / interlaced=0 / bluray_compat=0 / constrained_intra=0 / bframes=0 / weightp=0 / keyint=250 / keyint_min=25 / scenecut=40 / intra_refresh=0 / rc_lookahead=30 / rc=crf / mbtree=1 / crf=23.0 / qcomp=0.60 / qpmin=0 / qpmax=69 / qpstep=4 / ip_ratio=1.40 / aq=1:1.00
Language : English

Audio
ID : 2
Format : AAC
Format/Info : Advanced Audio Codec
Format profile : LC
Codec ID : 40
Duration : 9mn 5s
Bit rate mode : Variable
Bit rate : 128 Kbps
Maximum bit rate : 512 Kbps
Channel(s) : 2 channels
Channel positions : Front: L R
Sampling rate : 32.0 KHz
Compression mode : Lossy
Stream size : 8.33 MiB (13%)
Language : English
------------------------------------------------------------------------------------------------------------------
General
Complete name : test.avi
Format : AVI
Format/Info : Audio Video Interleave
File size : 59.6 MiB
Duration : 9mn 5s
Overall bit rate : 916 Kbps
Writing application : MEncoder sherpya-r37853+g6d7f566-5.3.1
Writing library : MPlayer

Video
ID : 0
Format : MPEG-4 Visual
Format profile : Simple@L1
Format settings, BVOP : No
Format settings, QPel : No
Format settings, GMC : No warppoints
Format settings, Matrix : Default (H.263)
Codec ID : DX50
Codec ID/Hint : DivX 5
Duration : 9mn 5s
Bit rate : 776 Kbps
Width : 856 pixels
Height : 480 pixels
Display aspect ratio : 16:9
Frame rate : 25.000 fps
Color space : YUV
Chroma subsampling : 4:2:0
Bit depth : 8 bits
Scan type : Progressive
Compression mode : Lossy
Bits/(Pixel*Frame) : 0.076
Stream size : 50.5 MiB (85%)
Writing library : Lavc57.34.100

Audio
ID : 1
Format : MPEG Audio
Format version : Version 1
Format profile : Layer 3
Mode : Joint stereo
Mode extension : MS Stereo
Codec ID : 55
Codec ID/Hint : MP3
Duration : 9mn 5s
Bit rate mode : Constant
Bit rate : 128 Kbps
Channel(s) : 2 channels
Sampling rate : 44.1 KHz
Compression mode : Lossy
Stream size : 8.33 MiB (14%)
Alignment : Aligned on interleaves
Interleave, duration : 26 ms (0.65 video frame)
Interleave, preload duration : 522 ms

Publicité
jujube2
 Posté le 14/06/2016 à 19:24 
Aller en bas de la page Revenir au message précédent Revenir en haut de la page
  Maître astucien

Pas lu ton affiche mais essayes avec ça : http://www.pcastuces.com/logitheque/vtv.htm

bye

lyllie
 Posté le 15/06/2016 à 10:21 
Aller en bas de la page Revenir au message précédent Revenir en haut de la page
Petite astucienne

Bonjour cher client

Pour convertir une vidéo MP4 vers le format AVI

Vous pouvez utiliser cette application de convertisseur en ligne qui propose de nombreux formats vidéo/audio ainsi que quelques fonctionnalités d'édition.

Il suffit de sélectionner le fichier que vous voulez convertir et puis choisissez le format désiré.

http://www.apowersoft.fr/convertisseur-video-en-ligne

Bien cordialement

Page : [1] 
Page 1 sur 1

Vous devez être connecté pour participer à la discussion.
Cliquez ici pour vous identifier.

Vous n'avez pas de compte ? Créez-en un gratuitement !
Recevoir PC Astuces par e-mail


La Lettre quotidienne +226 000 inscrits
Avec l'actu, des logiciels, des applis, des astuces, des bons plans, ...

Les bonnes affaires
Une fois par semaine, un récap des meilleurs offres.

Les fonds d'écran
De jolies photos pour personnaliser votre bureau. Une fois par semaine.

Les nouveaux Bons Plans
Des notifications pour ne pas rater les bons plans publiés sur le site.

Les bons plans du moment PC Astuces

Tous les Bons Plans
64,99 €Alimentation PC Corsair CV650 650W à 64,99 €
Valable jusqu'au 20 Janvier

Boulanger fait une promotion sur l'alimentation PC Corsair CV650 650W à 64,99 € au lieu de 80 € ailleurs. Cette alimentation certifiée 80+ Bronze dispose d'un ventilateur thermorégulé de 120 mm qui assure le refroidissement silencieux de votre système, tandis que son format compact s’adapte facilement à presque tous les boîtiers PC modernes avec une longueur de seulement 125mm.


> Voir l'offre
33,75 €Carte mémoire Samsung 256 Go MicroSDXC Evo Select U3 (100 Mo/s) à 33,75 € livrée
Valable jusqu'au 20 Janvier

Amazon Allemagne fait une promotion sur la toute nouvelle carte mémoire Samsung 256 Go MicroSDXC Evo Select U3 qui passe à 29,63 €. Comptez 4,52 € pour la livraison en France soit un total de 33,75 € livrée. Une bonne affaire pour cette carte que l'on trouve ailleurs à partir de 60 € et qui offre des vitesses de 100 Mo/s en lecture et 90 Mo/s en écriture.  Elle est idéale pour les téléphones, caméras et appareils photo 4K. Elle est étanche, anti-choc et résiste aux rayons X et aux champs magnétiques. Elle est garantie 10 ans.

Vous pouvez utiliser votre compte Amazon France sur Amazon Allemagne et il n'y a pas de frais de douane. Si vous êtes perdu en allemand, vous pouvez traduire le site en anglais.


> Voir l'offre
176,66 €Disque dur portable externe WD Black P10 Game Drive 8 To à 176,66 €
Valable jusqu'au 21 Janvier

Amazon Allemagne fait une promotion sur le disque dur externe WD Black P10 Game Drive 8 To qui passe à 169,99 € grâce à un coupon de réduction à cocher sur la page du produit. Comptez 6,67 € pour la livraison en France soit un total de 176,66 € livré. On le trouve ailleurs à partir de 200 €. Ce disque dur USB 3.1 est dédié pour gérer et transporter votre bibliothèque de jeux sur PC ou sur console.

Vous pouvez utiliser votre compte Amazon France sur Amazon Allemagne et il n'y a pas de douane.


> Voir l'offre

Sujets relatifs
Problème de conversion format divx en dvd
Format Factory (résolu par solution alternative)
Problème format impression photo
Conversion format Fichier en Avi
site propre pour télécharger Format factory
Problème de synchronisation apres conversion
Ou télécharger Format Factory sans risque?
Format Factory
Conversion PDFen Format JPG
Format factory
Plus de sujets relatifs à Format Factory problème de conversion
 > Tous les forums > Forum Multimédia